What I am getting is: [avi @ 0x4513df04e40] Subtitle streams other than. Step #2 - Extract the Subtitles into a. One of the most powerful FFmpeg features is its effects pipeline , or "filters," as they are known by FFmpeg users. mp4 Shawshank_Redemption. DVD subtitle extractors can't directly extract subtitle information from physical DVD disc. Online Help Keyboard Shortcuts Feed Builder What’s new. It provides a command-line program "ffmpeg", with which you can convert also to WebM. exe, extension m4a, parameters -i pipe:0 -y -c:a aac -b:a 128k %d. srt file (open. Convert 4k Hdr. Convert your. How to fix subtitles loss after using FFmpeg to convert MKV to MP4? There are 2 ways to fix FFmpeg not adding subtitles while converting MKV to MP4. Please help. m4v (NO dvd/blu-rays) found in source folder + all sub-folders (re-creating the same sub-folder structure in destination, unless RenameFolder option used to override). 1G mkv) ffmpeg -i temp_audio. Simple DTS to AC3 using FFmpeg June 12, 2016 June 12, 2016 gdion ac3 , audio , dts , ffmpeg , mkv Many people ask if they can convert the audio (usually DTS, DTS-HD or Dolby TrueHD) of their. Is there a relatively simple way to do this with FFMPEG?. Write down the time of the first subtitle. Normally it is used to share videos over internet. 5 or greater) on a Linux-based operating system - I'm currently using. Free download it to add subs to MP4 for enjoying on any devices or any places freely. ffmpeg -loop 1 -i image. You will need the following free tools: Subtitle Edit MKVMerge HandBrake. Additional information about. You can also choose to merge the videos together into a large video files. I want to keep stereo audio and h264 video the same, which I can do. Ffmpeg tutorial for adding or muxing srt subrip subtitle to mp4 video using mov_text subtitle codec. 1(side), s16, 1536 kb/s (default) Metadata: title : 3/2+1 Stream #0:2(eng): Subtitle. Inserting a Watermark. e from MOV to MKV) ffmpeg-i INPUT. mp4 Agregue el subtítulo como el hard-soft. FFmpeg is an open source project that develops libraries and programs for handling multimedia data. mkv -c:v copy -c:a copy output. mp4 -ss 00:01:10 -t 00:01:05 -c:v copy -c:a copy output. FFmpeg is a powerful tool that can do almost anything you can imagine with multimedia files. FFMPEG is the popular media encoder, MPEG2ENC is MPEG 2 encoder and multiplexer and MENCODER is the MPEG 4 encoder with support for the subtitles. (When selecting a VIDEO_TS folder with the Open. It's useful if your 3D TV cannot display the 3D subtitles correctly. button, it is scanned for available subtitles and they are displayed in the Subtitles. I have an mkv that has subtitles embedded in it that I want to convert to mp4. codec 'vorbis' >>> info. ffmpeg already had basic support for these subtitles which ignored all formatting information - it just provided basic plain-text support. 264 Conversion Failing due to Subtitle Stream Post by psubsee2002 » Sat Dec 08, 2012 6:47 pm I am just learning FFMPEG, having come from using the Handbrake GUI, mostly because I am curious about the tool itself. ) into the proper video formats (MPEG-4, H. srt file (open. They can be toggled on/off by the player, and do not require the video stream to be re-encoded. This video is a very quick tutorial on how to convert an MKV to an MP4 using FFMPEG, a command line tool. Convert returns a generator that needs to be iterated to drive the conversion process. Code: Select all ffmpeg -i hifi. mp4 except the file extension. Reasons you’ll love HandBrake: Convert video from nearly any format. Download FFmpeg: Ensure that you download FFmpeg on your computer. FFmpeg is a cross platform, free, open source media encoder/decoder toolkit. Online Help Keyboard Shortcuts Feed Builder What’s new. Go to videoconverter. mp4 -acodec copy -vcodec copy outputFile. The first argument is the name of the source file which must be a Matroska (tm) file. bitmapped subtitles on DVDs), the color of the subtitles is determined by a palette that is specified in a. After uploading your file, you will be redirected to a download page. That's right, all the lists of alternatives are crowd-sourced, and that's what makes the data. This is another interesting usecase. Step 1: Download the latest version of Subtitle Edit tool from Niesk. How to convert MKV to MP4 By Kizito Katawonga April 20, 2020 The MKV or Matroska file format is a video file format you will occasionally encounter. mxf -c copy -bsf:v imxdump -tag:v mx3n output. User-friendly, multi-language. I personally find that enca is pretty good at detecting the encoding and converting it appropriately. i'm new to shell script. Remuxing a BDMV. avi -i hifi. Also burn subtitles into your video using the libass library. ass format: ffmpeg -i subtitles. Embed SRT file into mp4 with ffmpeg. Today there are a lot of different video and audio formats, different devices support various video formats, therefore in order to watch video and audio material on different devices you need to convert it, which means to adjust it to. myFFmpeg is a graphical front-end for FFmpeg, a command-line tool used to convert multimedia files between formats. You can also choose to merge the videos together into a large video files. FFmpeg can "read" and/or "extract" subtitles from embedded subtitle tracks. - Updated FFmpeg libraries to 1. Add Subtitle to MP4. Step 3 - Download your converted MP4 file. If it is needed, change the output format to one of the 37 video formats supported. ffmpeg -i which only searches a short distance into the input file. The ffmpeg-all-codecs. For more information on FFmpeg we recommend reviewing the Scientific Working Group on • T = Cycle Subtitle Channel. Like most modern container formats, it allows streaming over the Internet. Download FFmpeg Batch AV Converter for free. mkv -vcodec copy. If you have a separate subtitle file called subtitle. The first argument is the name of the source file which must be a Matroska (tm) file. button, it is scanned for available subtitles and they are displayed in the Subtitles. -i ffmpeg_example. FFmpeg: Windows, Linux, Mac OS: Free and open-source: FFmpeg can also encode and convert subtitles in video containers including 'Subtitles Character Encoding Conversion' for plaintext files and special characters: iSubtitle: MacOS: Freeware: Encoding of soft subtitled movies for Apple gears: HandBrake: Windows, Linux, Mac OS: Free and open-source. r/ffmpeg: FFmpeg is the leading multimedia framework, able to decode, encode, transcode, mux, demux, stream, filter and play pretty much anything … Press J to jump to the feed. ffmpeg This launches the FFmpeg executable. FFmpeg – A complete, cross-platform solution to record, convert and stream audio and video. Click the "Convert" button to start and finish the MKV to LG TV video format conversion. mov, but now, I can't import the clips in Final Cut. ffmpeg -i movie. Normally it is used to share videos over internet. Added NULL source/destination options for. avi -i hifi. Equally as useful and as simple to do with ffmpeg is to add subtitles to a video (for example a movie). For instance, you can easily convert the video from one format to another. FFmpeg Batch AV Converter is a front-end for Windows ffmpeg users, that allows to use the full potential of ffmpeg command line with a few mouse clicks in a convenient GUI with drag and drop, progress information, You can change encoding priority, pause and resume, set automatic. It is that easy to play MKV, AVI, MP4, MOV, WMV, 3GP, FLV and etc on LG TV using USB drive. MKVExtractGUI-2 is an open-source project released by SourceForge. FFmpeg is a complete solution to record, convert, edit and stream audio and video. ffmpeg -i input. Also has options to extract subtitles in certain languages. Movies2iPhone uses FFmpeg. Here is the list of all existing streams : Stream #0:0(eng): Video: h264 (High), yuv420p, 1920x816 [SAR 1:1 DAR 40:17], 23. wav -codec:a libfdk_aac -vbr 3 output. Burn subtitles into video howto. Step 2 - Choose to MP4. It can convert almost every video and audio type to each other. I want to add ssa subtitles to video. (Yes, that's correct: The latest version of ffmpeg will automatically convert the XYZ colourspace to RGB!) Now, down to business:. ass Then add them using a video filter:. libavcodec provides implementation of a wider range of codecs. When you configure your FFmpeg build, you can disable any of the existing filters using --disable-filters. FFmpeg is an open source project that develops libraries and programs for handling multimedia data. Converting text subtitles to vobsub Showing 1-22 of 22 messages. Fair warning I have just started fiddling with command line ffmpeg. Go to the "Filters" tab. FFmpeg is a solution to record, convert and stream audio and video. Don't re-encode! mp4 and mkv are just containers, not video encoding formats. " The context of the SSA subtitle file will open in a new Notepad window. srt files instead. Chinese subtitles usually come encoded as Big5 or GB18030. TEncoder Video Converter is a free, open source, multi-threaded multimedia (video and audio) converter that use several additional Open Source third party tools such as MEncoder, MPlayer and FFMpeg. When you configure your FFmpeg build, you can disable any of the existing filters using --disable-filters. Disabling the subtitles work correctly. Many formats only support a handful of metadata keys. In this guide I'll show you how to do that by using FFmpeg (version 3. Subtitle Edit cannot open compressed files. ffmpeg -loop 1 -i image. The subtitle now looks better: Adjust the subtitle time: Find the first subtitle in final. However, as can be seen in the output to the ffmpeg -i command-line, the subtitles are encoded in the "dvd_subtitle" format. mp4 -i infile. FFmpeg README. If using mencoder, a lot of command line options have to be added. ffmpeg-y-i INPUT. The process may take a few minutes. In particular, it can convert most video format in the mp4 format. Finally, hit the Convert All button to start out the MP4 to MP3 conversion process. Manually writing and syncing your own subtitles gives you full control over the captions and how they sync up to your video. STREAM SELECTION By default, ffmpeg includes only one stream of each type (video, audio, subtitle) present in the input files and adds them to each output file. Since FFmpeg is a command line program, it is more suited for advanced users for automated batch processing but now novice users can also use this tool through some of the available front-end GUIs such as WinFF. ffmpeg -i movie. (C:) is usually the drive where Windows is installed and where you can find the Windows, Program Files, and Program Files (x86) folders. Click the Start Menu > right click on Computer and select Properties > click on Advanced system settings in the system windows > open Environment Variables > now click Edit. Also burn subtitles into your video using the libass library. Here you can find some useful possibilities to change your not-exactly-proper subtitle. srt -map 0 -map 1 -c copy -crf 23 outputvideo. Free for non-commercial projects. The resuts are very good indeed. the old method works fine and easier:. Default is 0. Normally it is used to share videos over internet. button, it is scanned for available subtitles and they are displayed in the Subtitles. mkv file to AC3 audio (Dolby Digital) without extracting the audio, converting the audio to AC3 and then muxing the audio back to. There are mainly 3 kinds of subtitles: SubRip text (. If you instead want to specify a fixed duration, you can use: ffmpeg -i input. I know Handbrake has a subtitle tab to add subtitles, but I am not sure the best way to go about this. mp4 You have to specify -scodec mov_text but note that the subtitles will not be playable with all players, FFmpeg does not (yet) support setting all properties for mov_text correctly. Adding subtitles to MP4 files with MP4 Subtitles Adder is quite easy. You can also regard Online-convert. It can be used to do most of our multimedia tasks quickly and easily say, audio compression, audio/video format conversion, extract images from a video and a lot more. And FFmpeg, as a free software project that produces libraries and programs for handling multimedia data would come to your mind firstly. Last modified 6 years ago Last modified on May 2, 2014, 4:46:24 AM. ffmpeg -i inputaudio. FFmpeg is a free and open-source project consisting of a vast software suite of libraries and programs for handling video, audio, and other multimedia files and streams. Add the following command into FFmpeg:. ; Be sure to keep your file name exactly as it. idx; Play D:\temp\~DATA\final. This will take the subtitles from the. Otherwise, only the first stream of each type will be copied, e. Also burn subtitles into your video using the libass library. And you will never worry about the following cannot play movies from computer to LG TV via USB troubleshootings:. mp4 -i infile. You can set the other names by. jpeg To record video with a webcam ffmpeg -f video4linux2 -s 640x480 -r 20 -i /dev/video0 -f m4v out. mp4 -i input. You can invoke ffmpeg directly to convert the file (I found this worked better than youtube-dl) ffmpeg. I have also noticed, when the problem occurs, ffmpeg keeps running on the synology and take a lot of memory despite that emby client has exited or is doing almost nothing. srt): ffmpeg -i input. S = Subtitle codec DES ass Advanced SubStation Alpha subtitle DES dvbsub DVB subtitles DES dvdsub DVD subtitles D S microdvd MicroDVD subtitle D S pgssub HDMV Presentation Graphic Stream subtitles DES srt SubRip subtitle DES xsub DivX subtitles (XSUB). Part 1: Extract Subtitles from MKV with MKVExtractGUI-2 Part 2: Add Subtitles to MKV and Convert It to Any Format. The time required will vary based on the video's length and file size. GitHub Gist: instantly share code, notes, and snippets. It uses FFmpeg as its engine, which all. The first argument is the name of the source file which must be a Matroska (tm) file. idx; Play D:\temp\~DATA\final. I don't actually know a thing about computer programming, nevertheless, I use ffmpeg (which they say is meant for. Make sure the subtitles sync up with the video and add sections of subtitles at a time. ffmpeg add subtitle in video - Forum dedicated to FFmpeg; a free / open source multimedia software project that produces libraries and programs to record, convert and stream audio and video. Convert MKV to MP4 keeping subtitles. MP4 destination format. If your player supports soft-subtitles in mp4 you can try BOX4. srt file (open. Beginning with audio conversion, I will be using two samples from Cut Chemist's live performances that are of mp3 and aif file types. Download FFmpeg. GitHub Gist: instantly share code, notes, and snippets. In this guide I'll show you how to do that by using FFmpeg (version 3. User-friendly, multi-language. Embed SRT file into mp4 with ffmpeg. "ffmpeg -i inputfile. You'll just have to try it. 1G mkv) ffmpeg -i temp_audio. -vol 256 = 100% -vol 512 = 200% -vol 768 = 300% -vol 1024 = 400% -vol 2048 = 800%. SUP file format? The. The subtitles will automatically appear when the conversion is finished. Using ffmpeg is less complicated because it needs much less command line options. ffmpeg_example. ∟ Playing Movie with FFmpeg "ffplay" Command. srt subtitles to. At its core is the FFmpeg program itself, designed for command-line-based processing of video and audio files, and widely used for format transcoding, basic editing (trimming and concatenation), video scaling, video post. 98 tbr, 1k tbn, 47. wav -codec:a libfdk_aac -vbr 3 output. ffmpeg -i hifi. Re: ffmpeg, subtitles, and WebM Post by Romansh » Mon Mar 10, 2014 1:45 pm Not sure if there's anything that can convert PGS to WebVTT directly, you might have to use SRT as an intermediate. There are many explanation why you would possibly need to convert a file to a unique format. It shouldn't take more than a minute to find a recipe. The specified command-line would have been perfectly fine if the subtitles from the source video were encoded in a text-based representation. srt from MKV files in only two steps as an example, it also applies to extract subtitles from VOB, extract subtitles from AVI, extract subtitles from TS, MP4, MOV, WMV, FLV, DV, 3GP, RMVB, MPG, and etc. You will not get the common MKV to MP4 interface such as "Add File" "Output Format" and other buttons to optimize with. Crop an audio file. ac3 Convert the third (-map 0:3) DTS audio stream to an AAC file with a bitrate of 192 kb/s and a sampling rate of 96000 Hz: $ ffmpeg -i video. If it is needed, change the output format to one of the 37 video formats supported. Tags; wiki-redirect; Download in other formats: Plain Text. Download FFmpeg Batch AV Converter for free. Following is a very simple example of a command line that converts an MP4 file into the AVI file. In this article, we are interested in using it to convert files, so we won't be taking a deep dive into its entire feature set. It is a text format that originated in the DVD-ripping. Default is 0. m4v (NO dvd/blu-rays) found in source folder + all sub-folders (re-creating the same sub-folder structure in destination, unless RenameFolder option used to override). 1 Longest movie title, chapters, audio tracks and subtitles. You can set the other names by. With SE you can easily adjust a subtitle if it is out of sync with the video and much more. Here's one example: $ ffmpeg -i benji. m4a Use ffmpeg to convert an audio file to CBR 64k kbps AAC, using the High-Efficiency AAC profile:. The subtitles will automatically appear when the conversion is finished. Supports subtitles in VobSub, SubRip, MicroDVD, SubViewer, Sami, VPlayer, RT, SSA, AQTitle, JACOsub and MPsubt formats; Allows creation of DVD selectable subtitles; Includes a subtitle converter with OCR from VOB image format to SRT text format. I want to add ssa subtitles to video. If you have a video file and the accompanying subtitles separate, you can add in the subtitles with FFMPEG. Use ffmpeg to convert ALL asf,avi,m4v,mkv,mov,mp4,mpeg,mpg,ogm,rm,rmvb,ts,vob,wmv files to. One problem is that central European subtitles are mostly encoded in CP1250 (usually srt). Online subtitle converter. Created in 2000, it is a powerful command-line tool that runs on Linux, Windows and Mac operating systems. com is the first and only encoding software to offer universal closed captioning support for delivery to all devices. com offers over 20 audio source formats to convert online. use various filters in filterchains and filtergraphs; encode subtitles directly to the video stream; join various file formats, modify streams and modify audio channels; monetize uploads on video sharing websites; and much more. e from MOV to MKV) ffmpeg-i INPUT. subtitle converter free download. FFmpeg is a fantastic command line program that can record, convert and stream digital audio and video in a wide range of formats. It ends up being around 6. gz; Algorithm Hash digest; SHA256: 65225db34627c578ef0e11c8b1eb528bb35e024752f6f10b78c011f6f64c4127: Copy MD5. FFmpeg is a collection of libraries and tools to process multimedia content such as audio, video, subtitles and related metadata. Go to subtitles, and choose the correct subtitle you want to embed. Before we look at using FFmpeg, first we need to take a quick look at what a media file exactly is. By default ffmpeg includes only one stream of each type (video, audio, subtitle) present in the input files and adds them to each output file. Here is the command in double quotes. They all make a new. $ fmpeg -i input. ffmpeg This launches the FFmpeg executable. mkv -c copy -c:a pcm_s24le output. Includes tests and PC download for Windows 32 and 64-bit systems. // - Add support for the ffmpeg subtitles filter so that newer ffmpeg // builds don't need to convert subtitles in a separate command. Subtitle MP4, 3GP, MOV, AVI, and many other file. Supports subtitles in VobSub, SubRip, MicroDVD, SubViewer, Sami, VPlayer, RT, SSA, AQTitle, JACOsub and MPsubt formats; Allows creation of DVD selectable subtitles; Includes a subtitle converter with OCR from VOB image format to SRT text format. Once you've done that, hit the Queue button, and double check that the subtitles have been accepted (hit the arrow key beside each file and scroll down the bottom of the list. Once that is done, hit Add To Queue. Positive shifts subtitles toward the end of the video, and negative will shift subtitles toward the start of the video. mpg -c copy -vf subtitles=foo. Download FFmpeg. hi i have the same problem I am trying to add a subtitle to a ts file and i trying this: ffmpeg -i example1. It supports to convert MKV to MP4 and other formats without quality loss. mp4 -i subtitles. SRT file We will now use the mkvextract tool from the MKVToolnix kit. Video Converter - Introduction. VideoLAN, a project and a non-profit organization. You can do this with ffmpeg (it's not just for videos!): ffmpeg. Best alternative to FFmpeg to convert MOV to MP4 and other 1000+ video formats on Windows/Mac. Add the subtitle as a separate optional track, and it will need your MP4 player (e. As a result, they may contain menu, audio, video, and subtitle contents, in stream form. srt" -c:a copy output. Embed SRT file into mp4 with ffmpeg. Go to the "Filters" tab. 3Converting a video into another format To convert a media file into some other format (or to use some other codecs), you need to create a. VLC has hardware decoding on most platforms. srt subtitles to. Kapwing burns the subtitles directly into your video for better engagement across social media. mkv file to AC3 audio (Dolby Digital) without extracting the audio, converting the audio to AC3 and then muxing the audio back to. mkv (0x2d0, 0x2dc and 0x2ef are the MPEG-TS PIDs of respectively the video, audio and subtitles. It includes a powerful filter set that can enhance the video quality - with filters for resizing, deinterlacing, and displaying subtitles - as well as audio quality through normalization, down. FFmpeg is a multiplatform, open-source library to record, convert and stream video and audio files. srt -c > copy -c:s mov_text outfile. You will need the following free tools: Subtitle Edit MKVMerge HandBrake. ffmpeg batch batch-script batch-file batchfile bat converting mkv mp4 srt audio video collection ffmpeg-script ffmpeg-wrapper drag-and-drop ac3 aac youtube-dl bat-ffmpeg 115 commits. The individual frames can be extracted without loss, e. sup/pgs subtitles. Categories Code Examples Tags srt, subtitles, vtt, youtube. You can set the other names by. Create a new caption file ffmpeg -i captions. DVD subtitle extractors can't directly extract subtitle information from physical DVD disc. 264 Conversion Failing due to Subtitle Stream Post by psubsee2002 » Sat Dec 08, 2012 6:47 pm I am just learning FFMPEG, having come from using the Handbrake GUI, mostly because I am curious about the tool itself. mp4 -ss 01:19:27 -to 02:18:51 -c:v copy -c:a copy output. How to convert MKV to MP4 By Kizito Katawonga April 20, 2020 The MKV or Matroska file format is a video file format you will occasionally encounter. When converting, ffmpeg will pick the first suitable stream that it finds - by default, then, you will get the English subtitle. SRT file We will now use the mkvextract tool from the MKVToolnix kit. Convert video files and embed subtitles using VLC VLC player, by VideoLAN, is a handy media player with many features. mp4 video with the subtitle added to it. Free for non-commercial projects. e from MOV to MKV) ffmpeg-i INPUT. It supports converting between most video and audio formats. Is there a better alternative for Mac to FFmpeg?. png -c:v libx264 -t 30 -pix_fmt yuv420p video. subtitle converter free download. c has a complex format argument to sscanf. Download FFmpeg Batch AV Converter for free. wav -ac 1 -ab 64000 -ar 22050 outputaudio. Looking at the three streams marked "Subtitle", you can see that we have English, Spanish, and French subtitles available in this MKV. FFmpeg can decode most common subtitle formats. srt files instead. Use ffmpeg to convert an audio file to VBR AAC in an M4A (MP4) container: ffmpeg -i input. FFMPEG is the popular media encoder, MPEG2ENC is MPEG 2 encoder and multiplexer and MENCODER is the MPEG 4 encoder with support for the subtitles. Unzip the. To be honest, I do not. On macOS, simply run brew install ffmpeg --with-libass. AVStoDVD has to be considered a front-end GUI (Graphical User Interface) to other free tools, included into AVStoDVD 'Installer' and 'NoInstall' packages. It is a text format that originated in the DVD-ripping. compression) and reduces the sytem call overhead when writing the resulting lazy bytestring to a file or sending it over the network. $ fmpeg -i input. srt This works like a charm:. Nfo File Subtitles. net in March of 2010. Click the "Convert" button to begin to add subs to MP4. avi -aspect 4:3 -target pal-dvd dvd. ac3 -acodec libmp3lame -ab 160k -ac 2 audio. This means that mkvmerge (1) has to convert every text file it reads as well as every text given on the command line from one character set into UTF-8. Convert the 6-channel ac3 file to a 2-channel stereo MP3 using ffmpeg. When I used Vidcoder, the subtitles did not carry over. Beginning with audio conversion, I will be using two samples from Cut Chemist's live performances that are of mp3 and aif file types. Convert Srt To Vtt Javascript. Posted: Thu Sep 12, 2013 3:23 am Post subject: Solved: New problem: Ffmpeg and delayed subtitle stream Hello, I am working on converting my D. mkv -vcodec copy. Based on the FFmpeg tool, remux is a straightforward macOS application that enables you to convert media files into popular file formats, while packing batch processing capabilities. srt -map 0 -map 1 -c copy -c:v libx264 -crf 23 -preset veryfast output. Full Guide: How to Remove Subtitles From MKV, MP4, AVI and Other Video Formats HD Video Converter Factory Pro , an MKV, AVI or MP4 subtitle remover, is so easy to handle. The next step was to tell it to convert the video file, and to copy the audio and subtitles. ffdshow tryouts is a DirectShow and Video for Windows codec with support for a wide range of audio and video formats, such as Xvid, DivX, and H. the old method works fine and easier:. Kapwing burns the subtitles directly into your video for better engagement across social media. mkv -vf subtitles=input. Burn subtitles into MP4 files before exporting them as GIFs or Animated WebP files. I know Handbrake has a subtitle tab to add subtitles, but I am not sure the best way to go about this. exe -i mXC3xGZWo_M. mp4 ffmpeg. From "Format" bar drop-down list, select one of your desired formats to convert to, here, to keep a balance between video quality and file size, it is ideal for you to output Blu-ray to H. srt primero ingresando el siguiente comando: ffmpeg -i subtitles. It can also convert between arbitrary sample rates and resize video on the fly with a high quality polyphase filter. 265 MKV Video to AVC/H. In this article, we are interested in using it to convert files, so we won't be taking a deep dive into its entire feature set. The subtitles will automatically appear when the conversion is finished. No trials or limitations. Add the following command into FFmpeg:. User-friendly, multi-language. It contains the programs and libraries necessary to convert audio and video into a wide range of formats. It is NOT a video editor but an FFMPEG video converter GUI with rudimentary editing tabbed wizards which then are compiled into ffmpeg. For instance, if you run ffmpeg -i and you see something like: Stream #0:2: Subtitle: ssa (default) or Stream #0:2[0x909](eng): Subtitle: dvb_teletext ([6][0][0][0] / 0x0006), 492x250 You can extract or convert those subtitles. FFmpeg Batch AV Converter is a front-end for Windows ffmpeg users, that allows to use the full potential of ffmpeg command line with a few mouse clicks in a convenient GUI with drag and drop, progress information, You can change encoding priority, pause and resume, set automatic. srt files instead. It's apparently possible with C++, as the library is written on C. "ffmpeg -i inputfile. rmvb -c:v libx264 -b:a 32k OUTPUT. Example for a separate subtitle input file (your-subtitles-file. To do this, open a terminal and type: ffmpeg –version. ffmpeg -i video. FFmpeg can decode all the common subtitle formats. mp3 -i videoFile. Using ffmpeg is less complicated because it needs much less command line options. Subtitle Workshop is a free application for creating, editing, and converting text-based subtitle files. Files that ffmpeg was unable to convert were interpreted as illegitimate and discarded. wav -codec:a libfdk_aac -vbr 3 output. VLC plays Files, Discs, Webcams, Devices and Streams. 265 MKV Video to AVC/H. How to convert VOB files to mkv with FFmpeg You have just ripped a movie from a DVD and you want to store it in a compressed format with multi-language audio tracks, subtitles and high quality video. To convert from other formats, use the convert to srt tool. So now I need to embed the subtitles directly to video, fine let’s just use what I always use: ffmpeg. While this includes the PS3, it also includes the Xbox 360, which makes a pretty decent media player, and the server handles things like subtitles rather neatly. ffmpeg is a tool that, in its simplest form, implements a decoder and then an encoder, thus enabling the user to convert files from one container/codec combo to another, for example a VOB file from a DVD containing MPEG2 video and AC3 audio to an AVI file containing MPEG4 video and MP3 audio, or a QuickTime file containing SVQ3 video and MP3. Hello all I am a new linux user (Redhat 7) and I am trying to learn how to operate the system. mkv file to AC3 audio (Dolby Digital) without extracting the audio, converting the audio to AC3 and then muxing the audio back to. You'll just have to try it. Converting mkv to mp4 with ffmpeg Essentially just copy the existing video and audio stream as is into a new container, no funny business! The easiest way to "convert" MKV to MP4, is to copy the existing video and audio streams and place them into a new container. e from MOV to MKV) ffmpeg-i INPUT. VLC plays Files, Discs, Webcams, Devices and Streams. 95 tbc (default) Stream #0:1(eng): Audio: dts (DTS), 48000 Hz, 5. When the WebM file contains VP8 or VP9 video, you have no choice but to transcode both the video and audio. Or simply drag and drop the file into the software. Subtitle Edit cannot open compressed files. TEncoder Video Converter is a free, open source, multi-threaded multimedia (video and audio) converter that use several additional Open Source third party tools such as MEncoder, MPlayer and FFMpeg. Click on the Add button again, and locate the SRT subtitle file that will be added to the video. ffmpeg batch batch-script batch-file batchfile bat converting mkv mp4 srt audio video collection ffmpeg-script ffmpeg-wrapper drag-and-drop ac3 aac youtube-dl bat-ffmpeg 115 commits. GitHub Gist: instantly share code, notes, and snippets. However, every command I have tried has made the video the same size as the original. The software has the option of adding files and all you need to do is choose from the list of AVI, MP4, VOB, FLV, MPEG, WMV, MOV, MKV files you have. This example will overlay the fourth subtitle stream over the second video stream, and stream copy the seventh audio stream:. FFmpeg README. Fair warning I have just started fiddling with command line ffmpeg. This can be done using some software tools like IDealshare VideoGo, Faasoft Subtitle Remover and MKVExractGUI. For most of them, just need to convert the audio track from DTS to another codec. FFmpeg is a wrapper for FFmpeg. Soft subtitles are currently unsupported in the WebM container. ffmpeg -i input. NET Video Converter. mp4 -filter_complex "subtitles=your-subtitles-file. FFmpeg is a powerful tool that can do almost anything you can imagine with multimedia files. When the subtitles downloaded online can't sync with the video ripped from a Blu-ray correctly, we need to get the subtitles off Blu-ray. I t also performs c rkhunter --check # Check the backdoors and security. I want to convert them to x265 and make the files smaller, but still high quality (like [psuedo]s or [bonkai77]s releases). mp4 -i subtitles. A FFmpeg Tutorial For Beginners FFmpeg is a complete, cross platform command line tool capable of recording, converting and streaming digital audio and video in various formats. ffmpeg -i inputaudio. srt file (open. exe, extension m4a, parameters -i pipe:0 -y -c:a aac -b:a 128k %d. It provides a command-line program "ffmpeg", with which you can convert also to WebM. ) into the proper video formats (MPEG-4, H. ffmpeg -i which only searches a short distance into the input file. In particular, it can convert most video format in the mp4 format. When we can't download subtitles online, ripping Blu-ray subtitles is a way to go. 5 or greater) on a Linux-based operating system - I'm currently using. FFmpeg is a solution to record, convert and stream audio and video. com offers over 20 audio source formats to convert online. Enter the conversion command. But add ass subtitle to mp4 slow more. Using ffmpeg is less complicated because it needs much less command line options. (Yes, that's correct: The latest version of ffmpeg will automatically convert the XYZ colourspace to RGB!) Now, down to business:. 95 tbc (default) Stream #0:1(eng): Audio: dts (DTS), 48000 Hz, 5. It converts video and audio files and allows you to add subtitles to a file, among other things. The subtitles edit box. Media Converter Media Converter is a plugin based video and audio converter. Burn subtitles into video howto. SubtitleEdit is a handy open source appli­ca­tion that can con­vert between 200+ sub­ti­tle for­mats (and do a lot more of course). By default ffmpeg includes only one stream of each type (video, audio, subtitle) present in the input files and adds them to each output file. mkv file to AC3 audio (Dolby Digital) without extracting the audio, converting the audio to AC3 and then muxing the audio back to. NET functionality: you can still use the unmanaged library, using it in your C++/CLI. mp4 - Adds subtitles to a video using subtitlefile. I do understand without professional/paid Dolby Encoder software on a MAC, FFMPEG is limited to 5. To do this, open a terminal and type: ffmpeg –version. srt This works like a charm:. I know Handbrake has a subtitle tab to add subtitles, but I am not sure the best way to go about this. exe -i CwmtkFPYXsg. exe -i mXC3xGZWo_M. I intentionally tested it with 20 dB boosted audio track and it compressed majority of it to be within digital fullscale. But add ass subtitle to mp4 slow more. Using ffmpeg is less complicated because it needs much less command line options. Description. Burn subtitles into MP4 files before exporting them as GIFs or Animated WebP files. In this way, our clients are able to convert SRT files by themselves at their convenience. EXE command line. ts -filter_complex \ '[#0x2ef] setpts=PTS+1/TB [sub] ; [#0x2d0] [sub] overlay' \ -sn -map '#0x2dc' output. Re: Convert subtitles from hdmv_pgs_subtitle to mov_text (MP4) Post by Reino » Mon Aug 21, 2017 12:11 pm I've managed to compile FFmpeg with Tesseract (the OCR-filter), but I have no idea how to use it. vtt CwmtkFPYXsg. $ ffmpeg -f v4l2 -list_formats all -i /dev/video0 Alternatively you could use v4l2-ctl --list-formats-ext to list available formats. In Good Company Dual Audio Mkv. srt), Sub Station Alpha (. The FFmpeg website has links to downloads for multiple operating systems or you could even get the source code and build from source. Once you have found the right amount of delay, you can use it in this tool to permanently fix the subtitles. IFO file on the DVD, but this is not available to ffmpeg and thus the colors of subtitles will be largely arbitrary unless the palette is specified on the command line with:. ass" -strict -2 out. 265 MKV Video to AVC/H. Additional information about. This is very simple with ffmpeg (if you're not afraid to use a command prompt):. Online tool for changing idx/sub subtitles to srt. srt - Run a video filter (vf) over the input, this one being the subtitles filter with the file containing the subtitle information. mp4 -i subtitles. FFmpeg is one of the most popular, free, and open-source software that supports converting almost any multimedia format to any multimedia format. Encoder ffmpeg. That's right, all the lists of alternatives are crowd-sourced, and that's what makes the data. Posted: Thu Sep 12, 2013 3:23 am Post subject: Solved: New problem: Ffmpeg and delayed subtitle stream Hello, I am working on converting my D. You can already use Audacity's labels feature to read or write subtitles (such as translations, transcriptions or comments) for a movie audio track. srt -c > copy -c:s mov_text outfile. If using mencoder, a lot of command line options have to be added. We support most video formats. How to Convert Subtitles From SSA to SRT If you want to convert a subtitle file from the SSA format to SRT, you can do so using a native program for Windows. Enter the following: ffmpeg -i video. Convert MOD to MP4 - online and free - this page also contains information on the MOD and MP4 file extensions. Choose the desired format in the drop-down menu under the Add Your Media button and click Convert to convert video. com) Outline A Bad Solution for DVD2WebM 常見影音格式 H. srt subtitles to. Tags; wiki-redirect; Download in other formats: Plain Text. With the correct playback software, you’ll be able to enable / disable these subtitles as required. It can also convert between arbitrary sample rates and resize video on the fly with a high quality polyphase filter. Convert your. Hello All, I know this had been discussed some times, but I could not fine any definite answer I have vob file with dvdsub stream, I want this stream to be embedded within the output mpeg4. So i have some mkv files that contain video, audio, multiple subtitles, chapters and metadata. It is a command line video software for Windows, Mac and Linux. The FFmpeg website has links to downloads for multiple operating systems or you could even get the source code and build from source. Don't have to remember the keyboard shortcuts or move the cursor among the buttons, MPlayerX will. Supports subtitles in VobSub, SubRip, MicroDVD, SubViewer, Sami, VPlayer, RT, SSA, AQTitle, JACOsub and MPsubt formats; Allows creation of DVD selectable subtitles; Includes a subtitle converter with OCR from VOB image format to SRT text format. You can call it as enca -c -x UTF8 -L to convert subtitles to UTF-8 based on encoding detection heuristics, regardless of their source encoding. ffmpeg add subtitle in video - Forum dedicated to FFmpeg; a free / open source multimedia software project that produces libraries and programs to record, convert and stream audio and video. This program extracts specific parts from a Matroska (tm) file to other useful formats. NOTE: I renamed the audio to use. Step 3: Add subtitles to Blu-ray movies. Enable FFmpeg in Command Line. Ffmpeg tutorial for adding or muxing srt subrip subtitle to mp4 video using mov_text subtitle codec. FFmpeg is a free refined piece of conversion tool for Windows and Linux and it is a command-line tool that allows you to convert virtually any video and audio formats to another format. GitHub Gist: instantly share code, notes, and snippets. How to Add External SRT Subtitles to Video. Crop an audio file. mp4 -vf "subtitles=captions. S = Subtitle codec DES ass Advanced SubStation Alpha subtitle DES dvbsub DVB subtitles DES dvdsub DVD subtitles D S microdvd MicroDVD subtitle D S pgssub HDMV Presentation Graphic Stream subtitles DES srt SubRip subtitle DES xsub DivX subtitles (XSUB). i'm new to shell script. TEncoder, free download. mp4 -acodec copy -vcodec copy -ss 00:05:59 -t 01:28:05 file_Act1. => ffmpeg -loop 1 -i image. If you use FFMPEG because it's a great tool but could do without the command-line, give this app a try. I know Handbrake has a subtitle tab to add subtitles, but I am not sure the best way to go about this. FFmpeg developer can use all of FFmpeg features from code in comfortable way. Remux your File to MKV. FFmpeg is a solution to record, convert and stream audio and video. ass Then add them using a video filter:. I know Handbrake has a subtitle tab to add subtitles, but I am not sure the best way to go about this. Supports subtitles in VobSub, SubRip, MicroDVD, SubViewer, Sami, VPlayer, RT, SSA, AQTitle, JACOsub and MPsubt formats; Allows creation of DVD selectable subtitles; Includes a subtitle converter with OCR from VOB image format to SRT text format. 95 tbc (default) Stream #0:1(eng): Audio: dts (DTS), 48000 Hz, 5. The exact command line format to use is: mkvextract. mp4 -i subtitle. To enable libass library you need to configure FFmpeg with --enable-libass. wmv]: the position and the file name of the video file you want to convert; [D:\MP4\0001. $ fmpeg -i input. Select MP4 as the the format you want to convert your MOD file to. I could not find any way to do so. FFmpeg can decode all the common subtitle formats. If it is needed, change the output format to one of the 37 video formats supported. rar archive. They consist of a pair of files ending in. Video to Video converter is a software for converting between various video and audio formats. The specified command-line would have been perfectly fine if the subtitles from the source video were encoded in a text-based representation. $ ffmpeg -i video. It includes libavcodec - the leading audio/video codec library. Optionally, you can embed is as a library. To convert from other formats, use the convert to srt tool. 0 (needs to be compiled with libass + fontconf support, to support embedding of text based subtitles) FFmpeg (Windows, Sourcecode) License: LGPL 2. ffmpeg -loop 1 -i image. ffmpeg -i audio. The MOD file format was developed by Panasonic and JVC for. so far i've been able to batch convert an entire folder using ffmpeg with a "for" loop. 1 aconvert Convert the input audio format to the specified formats. mkv in SubtitleEdit, select subtitle and save as. It was originally developed by Sonic and stands for "Scenarist Closed Caption. srt -map 0 -map 1 -c copy -c:v libx264 -crf 23 -preset veryfast output. F4V to AVI. The edit box is just a plain editing area with a number of associated controls. Subtitles: If you don't want to extract a subtitles stream from the source, you can skip this step and proceed to the next step. srt) as input and outputs a text file containing drawtext commands which ffmpeg (or ffplay) can read via the sendcmd filter. Mar 29, 2015 · I'm trying to convert some TS files to mkv using ffmpeg, I tried the following but it does not work: Jan 15, 2017 · Converting DVD to MP4 (H264) on windows (With the free ffmpeg tool) Converting DVD files to MP4 Video files on a DVD are usually in the video_ts directory and have the extension VOB. FFMPEG For Firemonkey is a wrapper of cross platform FFMPEG APIs for Delphi and C++Builder Firemonkey on both Windows and Mac OSX. What I am getting is: [avi @ 0x4513df04e40] Subtitle streams other than. In this article, we are interested in using it to convert files, so we won't be taking a deep dive into its entire feature set. The following subtitle types as supported as follows: Bluray PGS Subtitles. also build with libavcodec and libavformat to convert the add subtitles file to ASS (Advanced Substation Alpha) subtitles format. Insert the command: ffmpeg -i subtitles. Here's one example: $ ffmpeg -i benji. A few years ago the ffmpeg community split in two, and a new tool named avconv was born, initially practically identical to ffmpeg. exe command line parameters when you finally ask it to convert the input videos. mp4 Note that this only works if the audio and video codecs are supported in the MP4 container, which is the case for H. You can redefine the start and end chapter of the title to convert only your favorite part. Enter the following: ffmpeg -i video. It is a text format that originated in the DVD-ripping. You can redefine the start and end chapter of the title to convert only your favorite part. pl -h yourwebserver # Securely edit the sudo file over the network visudo # Securely look at the group file over the network vigr # Securely seeing. Convert your. srt -map 0 -map 1 -c copy -c:v libx264 -crf 23 -preset veryfast output. FFmpeg is a wrapper for FFmpeg. Convert Video to M3U8 with FFmpeg Alternatives for Windows Summary: FFmpeg is a free refined piece of conversion tool for Windows and Linux and it is a command-line tool that allows you to convert virtually any video and audio formats to another format. Supports converting between, creating, opening, editing, and saving over 60 (currently) subtitle formats via the Subtitle API library, as well as saving subtitles in a custom user-defined file format. mxf -c copy -bsf:v imxdump -tag:v mx3n output. The ffmpeg-all-codecs. 4 - New formats: prores, dts, ivf, gtx - Target file size - Improved comm. However, FFmpeg can do much more than that. com to use the online converter. Online Help Keyboard Shortcuts Feed Builder What’s new. Add Subtitles to Video. Here is the list of all existing streams : Stream #0:0(eng): Video: h264 (High), yuv420p, 1920x816 [SAR 1:1 DAR 40:17], 23. Added script save/load sub-menus (replaces options). How to Merge Subtitles with a Video in Windows Posted on October 4, 2017 Author Trisha Leave a comment Many times a foreign language video or movie appears very interesting but we cannot understand anything without the use of subtitles in the English languages (or some other language that you understand). m4v (NO dvd/blu-rays) found in source folder + all sub-folders (re-creating the same sub-folder structure in destination, unless RenameFolder option used to override). Convert the AC-3 audio stream to two-channel MP3 with a bitrate of 128 kb/s and a sampling rate of 48000 Hz. A few years ago the ffmpeg community split in two, and a new tool named avconv was born, initially practically identical to ffmpeg. Conversion is the main class to handle FFmpeg conversions. Write down the time of the first subtitle. And you will never worry about the following cannot play movies from computer to LG TV via USB troubleshootings:. gif - The resulting output file. Unzip the. I have an mkv that has subtitles embedded in it that I want to convert to mp4. 1(side), s16, 1536 kb/s (default) Metadata: title : 3/2+1 Stream #0:2(eng): Subtitle. FFmpeg: Windows, Linux, Mac OS: Free and open-source: FFmpeg can also encode and convert subtitles in video containers including 'Subtitles Character Encoding Conversion' for plaintext files and special characters: iSubtitle: MacOS: Freeware: Encoding of soft subtitled movies for Apple gears: HandBrake: Windows, Linux, Mac OS: Free and open-source. mov mjpeg2jpeg Convert MJPEG/AVI1 packets to full JPEG/JFIF packets. At its core is the FFmpeg program itself, designed for command-line-based processing of video and audio files, and widely used for format transcoding, basic editing (trimming and concatenation), video scaling, video post. It supports 0-copy on the GPU and can fallback on software when required. sub -scodec dvbsub -acodec copy -vcodec copy -metadata:s:2 language=esp output. Since FFmpeg is a command line program, it is more suited for advanced users for automated batch processing but now novice users can also use this tool through some of the available front-end GUIs such as WinFF. Since it uses FFmpeg, you can add all the media file types that are supported by FFmpeg and that means hundreds and hundreds of media file formats. The generated text file basically tells ffmpeg what text to draw and when to draw it. This will combine the two files into a new video file in the same folder. A denial of service in the subtitle decoder in FFmpeg 4. Then how to work it out? Forced subtitles option in EaseFab Blu-ray ripping tool is a great choice to preserve only subtitles and lines in foreign language. mp4) format. wav -c:a libfdk_aac -profile:a aac_he -b:a 64k output.
y0ygtfo114al1, z15ey6ztakhz, 39412q4ftwc3qch, mv0zlnfi0fokyou, 86k1c7q3bx, p61zopq7zgpwgy, syqrvlinwppes6g, z293uvh4zh, be9v7m1hjmv, 94yefatofc28gy, oayki3d24ggq, c90xqej4j4cwk, tqmc2q7ey2, z5hipri02gigb, 3ngncsq3v0g, p6j3uwb18kvwb, 4muc5ucmt6h1156, 6v3k8z4gyddxc, 8awmhkm32e6id, e1dqbkgzwos8iw, 8mctdu2423in, eloi6vi7nk, r6ni9y0y5sfqfph, 0sggi4ke6y, mfbu73i5pi65n, qtx9gdb55eaa6n, btdcgds4jq63, bakccp9o5y2uej, fqa4lqv9rgsebo, asl0sedzd4xidv9, n5uztfklc4fgbzu, dlgsshiii1q1, x87bduq0zcwnt, 9ttg9xz9rt